IPB WARNING [2] fopen(websound_sw.js) [function.fopen]: failed to open stream: Permission denied (Line: 2552 of /sources/functions.php)
IPB WARNING [2] fwrite(): supplied argument is not a valid stream resource (Line: 2553 of /sources/functions.php)
IPB WARNING [2] fclose(): supplied argument is not a valid stream resource (Line: 2554 of /sources/functions.php)
CUE Plugin for WINAMP :: Программное обеспечение :: Ruforum
Ruforum.eu Вход · Регистрация · Правила · Поиск · Помощь
Календарь · Участники · Игры
Вы не авторизованы на форуме. Введите логин и пароль или зарегистрируйтесь    

 
Ответить · Новая тема · Новое голосование

Каскадный · [ Стандартный ] · Линейный

CUE Plugin for WINAMP

Подписка на тему | Сообщить другу | Версия для печати
Андрей (С-Пб)
Начинающий


Сообщений: 9
Статус: вне форума

Эта тема актуальна более для тех, кто использует lossles кодеки для хранения любимой музыки. Когда копируешь диск, предполагаешь, что рано или поздно ты его запишешь на болванку. Поэтому удобно грабить в виде одного файла-образа с разметкой CUE. А что с ним делать, пока не записал? Слушать в WINAMPе в виде одного большого файла не удобно... Хочется разметки по песням.

И вот нашелся человек, который облегчил коллекционерам жизнь и написал такой плагин smile.gif Скачать его можно отсюда: http://etono.cplusplus.se/cueplay/

А что делать, если у вас нет CUE разметки альбома? Тогда идем на этот сайт: http://www.spandel.nl/ Там огромная коллекция CUE Sheets, которая постоянно обновляется. Ну а если и там нет разметки, то ее можно создать самому в любом текством редакторе.
CODE :

REM DISCID 6712BA18
REM COMMENT "ExactAudioCopy v0.95b2"
PERFORMER "Надежда Чепрага"
TITLE "Сказочное"
FILE "Чепрага - Сказочное.ape" WAVE
 TRACK 01 AUDIO
   TITLE "Белый олень моей любви"
   PERFORMER "Надежда Чепрага"
   INDEX 01 00:00:00
 TRACK 02 AUDIO
   TITLE "Верь мне"
   PERFORMER "Надежда Чепрага"
   INDEX 00 02:58:00
   INDEX 01 02:59:74
 TRACK 03 AUDIO
   TITLE "Вечером на качелях"
   PERFORMER "Надежда Чепрага"
   INDEX 00 05:57:46
   INDEX 01 05:59:45
 TRACK 04 AUDIO
   TITLE "Во имя мира и любви"
   PERFORMER "Надежда Чепрага"
   INDEX 00 08:53:60
   INDEX 01 08:55:59
 TRACK 05 AUDIO
   TITLE "Дома твои, Молдавия"
   PERFORMER "Надежда Чепрага"
   INDEX 00 11:47:64
   INDEX 01 11:49:63
 TRACK 06 AUDIO
   TITLE "Загадайте"
   PERFORMER "Надежда Чепрага"
   INDEX 00 13:50:05
   INDEX 01 13:52:04
 TRACK 07 AUDIO
   TITLE "Заздравная"
   PERFORMER "Надежда Чепрага"
   INDEX 00 17:31:01
   INDEX 01 17:33:00
 TRACK 08 AUDIO
   TITLE "Затаенная тоска (Песня о матери)"
   PERFORMER "Надежда Чепрага"
   INDEX 00 20:36:29
   INDEX 01 20:38:28
 TRACK 09 AUDIO
   TITLE "Кубанита"
   PERFORMER "Надежда Чепрага"
   INDEX 00 24:52:47
   INDEX 01 24:54:46
 TRACK 10 AUDIO
   TITLE "Любимая страна"
   PERFORMER "Надежда Чепрага"
   INDEX 00 28:05:60
   INDEX 01 28:07:59
 TRACK 11 AUDIO
   TITLE "Молдавия"
   PERFORMER "Надежда Чепрага"
   INDEX 00 30:29:43
   INDEX 01 30:31:42
 TRACK 12 AUDIO
   TITLE "Москва"
   PERFORMER "Надежда Чепрага"
   INDEX 00 32:44:25
   INDEX 01 32:46:24
 TRACK 13 AUDIO
   TITLE "Образ матери"
   PERFORMER "Надежда Чепрага"
   INDEX 00 36:27:45
   INDEX 01 36:29:44
 TRACK 14 AUDIO
   TITLE "Птица счастья"
   PERFORMER "Надежда Чепрага"
   INDEX 00 40:11:74
   INDEX 01 40:13:73
 TRACK 15 AUDIO
   TITLE "Сани"
   PERFORMER "Надежда Чепрага"
   INDEX 00 43:07:32
   INDEX 01 43:09:31
 TRACK 16 AUDIO
   TITLE "Снова возвращаюсь"
   PERFORMER "Надежда Чепрага"
   INDEX 00 45:50:11
   INDEX 01 45:52:10
 TRACK 17 AUDIO
   TITLE "Счастливая страна"
   PERFORMER "Надежда Чепрага"
   INDEX 00 49:14:08
   INDEX 01 49:16:07
 TRACK 18 AUDIO
   TITLE "Тоскую о тебе"
   PERFORMER "Надежда Чепрага"
   INDEX 00 50:55:60
   INDEX 01 50:57:59
 TRACK 19 AUDIO
   TITLE "Да, да, да"
   PERFORMER "Надежда Чепрага"
   INDEX 00 56:00:05
   INDEX 01 56:02:04
 TRACK 20 AUDIO
   TITLE "Петре"
   PERFORMER "Надежда Чепрага"
   INDEX 00 60:37:58
   INDEX 01 60:39:57
 TRACK 21 AUDIO
   TITLE "Полевой цветок"
   PERFORMER "Надежда Чепрага"
   INDEX 00 64:12:38
   INDEX 01 64:14:37
 TRACK 22 AUDIO
   TITLE "Солнце красное"
   PERFORMER "Надежда Чепрага"
   INDEX 00 67:37:36
   INDEX 01 67:39:35
 TRACK 23 AUDIO
   TITLE "Золотой звездопад"
   PERFORMER "Надежда Чепрага"
   INDEX 00 71:42:71
   INDEX 01 71:44:70
 TRACK 24 AUDIO
   TITLE "Сказочное"
   PERFORMER "Надежда Чепрага"
   INDEX 00 76:00:58
   INDEX 01 76:02:57


Оффтопик: Прошу прощения у модераторов, если эта тема уже проскакивала - как настоящему кошаку искать влом %)



ИБО НЕФИГ!!!
01.10.2005 · 15:55
Быстрый ответ



Цитировать выделенный текст [b] Написать жирным[i] Написать с наклоном[u] Написать и подчеркнуть  Функция недоступна..[list] Список из нескольких пунктов с символьными маркерами [quote] Вставить цитату[img] Вставить картинкуФункция недоступна..   [url] Вставить ссылку[email] Вставить e-mail[code] Вставить текст как есть, без изменений и выравниванияРазделительная полоса [hr]  Файл помощи по кодам форума
Тему просматривают:
Ответить · Опции темы · Новая тема

 


Правила форума · FAQ по форуму · Поиск · Архив форума

Наши партнеры: Cooler.irk.ru · WebSound.ru